Under the Sun(USA) - Under the Sun (2000)

View previous topic View next topic Go down

Under the Sun(USA) - Under the Sun (2000)

Post by kelia99 on Thu Sep 16, 2010 4:48 pm

Under the Sun - Under the Sun (2000)



Шедевральный дебютный альбом американцев Under the Sun. Виртуозные музыканты, великолепные и неизбитые музыкальные темы, и, главное - оригинальность, непохожесть на основную массу представителей жанра. В общем, у группы только одна проблема - второго альбома они так и не выпустили. Да, и еще: продюссер диска - знаменитый Терри Браун.

Origin: USA
Genre: Progressive Rock, Hard Rock
Quality: (FLAC,cue,Log,Cover,3% Recovery record)
Size: 490 Mb
Label: Magna Carta
Catalog :#MA-9041-2

Track List:

1. This Golden Voyage (7:13)
2. Tracer (5:41)
3. Seeing Eye God 3:37)
4. Gardens Of Autumn (5:02)
5. Perfect World (5:21)
6. Reflections (5:45)
7. Breakwater (7:34)
8. The Time Being (10:01)
a) In The Valley Of The Shadow of
b) Passage Angel
c) Scream For Redemption
9. Dream Catcher (7:56) .
10. From Henceforth Now And Forever (PS 124) (9:16)

Total Time: 67:30



Line-up Musicians:

- Chris Shryack / lead & harmony vocals, acoustic & electric guitars, sound effects, ebow, chimes, shakers & rattles
- Kurt Barabas / bass guitars, bass pedals, harmony vocals, tamborine, additional distorto-acoustic guitar
- Matt Evidon / harmony vocals, keyboards
- Paul Shkut / drums, percussion
- John Massey / bagpipes (7)
- Terry Brown & David Townson / drum loops (3)
- Chief Running Bear / Cherokee narration (9)
Log EAC:
Exact Audio Copy V0.99 prebeta 5 from 4. May 2009

Отчёт EAC об извлечении, выполненном 8. мая 2010, 23:57

Under the Sun / Under the Sun

Дисковод: HL-DT-STDVDRAM GSA-H66N Adapter: 3 ID: 0

Режим чтения : Достоверность
Использование точного потока : Да
Отключение кэша аудио : Да
Использование указателей C2 : Нет

Коррекция смещения при чтении : 667
Способность читать области Lead-in и Lead-out : Нет
Заполнение пропущенных сэмплов тишиной : Да
Удаление блоков с тишиной в начале и конце : Нет
При вычислениях CRC использовались нулевые сэмплы : Да
Интерфейс : Встроенный Win32-интерфейс для Win NT/2000

Выходной формат : Внутренние WAV-операции
Формат сэмплов : 44.100 Гц; 16 бит; стерео


TOC извлечённого CD

Трек | Старт | Длительность | Начальный сектор | Конечный сектор
---------------------------------------------------------------------
1 | 0:00.00 | 7:13.52 | 0 | 32526
2 | 7:13.52 | 5:42.00 | 32527 | 58176
3 | 12:55.52 | 3:39.00 | 58177 | 74601
4 | 16:34.52 | 5:03.02 | 74602 | 97328
5 | 21:37.54 | 5:22.00 | 97329 | 121478
6 | 26:59.54 | 5:45.43 | 121479 | 147396
7 | 32:45.22 | 7:34.12 | 147397 | 181458
8 | 40:19.34 | 9:58.05 | 181459 | 226313
9 | 50:17.39 | 7:56.25 | 226314 | 262038
10 | 58:13.64 | 9:16.43 | 262039 | 303781


Характеристики диапазона извлечения и сообщения об ошибках

Выбранный диапазон

Имя файла J:\Under the Sun(2000)\Under the Sun - Under the Sun.wav

Пиковый уровень 100.0 %
Качество диапазона 100.0 %
CRC копии 6B709DA7
Копирование... OK

Ошибок не произошло


AccurateRip: сводка

Трек 1 нет в базе данных
Трек 2 нет в базе данных
Трек 3 нет в базе данных
Трек 4 нет в базе данных
Трек 5 нет в базе данных
Трек 6 нет в базе данных
Трек 7 нет в базе данных
Трек 8 нет в базе данных
Трек 9 нет в базе данных
Трек 10 нет в базе данных

Ни одного трека нет в базе AccurateRip

Конец отчёта

_________________
Fools all of us... Basketball
avatar
kelia99

Posts : 308
Join date : 2010-09-01
Age : 56

View user profile http://in-rock-lossless.moole.ru/

Back to top Go down

View previous topic View next topic Back to top

- Similar topics

 
Permissions in this forum:
You cannot reply to topics in this forum