Tunnels(USA) - Jazz Rock/Fusion

View previous topic View next topic Go down

Tunnels(USA) - Jazz Rock/Fusion

Post by kelia99 on Thu Sep 16, 2010 4:31 pm

Tunnels - With Percy Jones (1993)



Перси Джонс (Percy Jones) (1947 г.р.) - легендарный басист-виртуоз. С 1975 по 1980 он играл в легендарной фьюжн группе – Brand X. Эта группа стоит в одном ряду с такими исполнителями музыки фьюжн, как – John McLaughlin, Weather Report, Chick Corea Return to Forever, Herbie Hancock Headhunters, Billy Cobham и др. Brand X в 70-х часто признавали лучшей фьюжн группой Англии, да и в опросах других стран по музыке в стиле фьюжн они занимали высокие места. Brand X распались в 1980 году. А Tunnels появились в 1993................

Year: 1993
Origin: United States
Genre: Jazz Rock/Fusion
Quality: (FLAC,cue,Log, cover-front ,3% Recovery record)
Size: 471 mb

Track List:

1. Inseminator (6:09)
2. Prisoners Of The Knitting Factory Hallway (6:40)
3. Tunnels (6:56)
4. Maxwell's Demon (7:17)
5. Bad American Dream (15:28)
6. Freebander (3:52)
7. Area (7:52)
8. Barrio (9:07)
9. Silck (5:41)
10. Improvisation (4:35)

Total Time: 73:43

Line-up Musicians:

- Percy Jones / bass
- Marc Wagnon / Midi vibes
- Van Manakas / guitar
- Frank Katz / drums

Releases information
CD-Ozone-1994 / CD-Buckyball-1999
Log EAC:
Exact Audio Copy V0.99 prebeta 4 from 23. January 2008

Отчёт EAC об извлечении, выполненном 7. февраля 2010, 19:50

Tunnels (with Percy Jones) / Tunnels

Дисковод: HL-DT-STDVDRAM GSA-H66N Adapter: 3 ID: 0

Режим чтения : Достоверность
Использование точного потока : Да
Отключение кэша аудио : Да
Использование указателей C2 : Нет

Коррекция смещения при чтении : 667
Способность читать области Lead-in и Lead-out : Нет
Заполнение пропущенных сэмплов тишиной : Да
Удаление блоков с тишиной в начале и конце : Нет
При вычислениях CRC использовались нулевые сэмплы : Да
Интерфейс : Встроенный Win32-интерфейс для Win NT/2000

Выходной формат : Внутренние WAV-операции
Формат сэмплов : 44.100 Гц; 16 бит; стерео


TOC извлечённого CD

Трек | Старт | Длительность | Начальный сектор | Конечный сектор
---------------------------------------------------------------------
1 | 0:00.00 | 6:09.73 | 0 | 27747
2 | 6:09.73 | 6:40.00 | 27748 | 57747
3 | 12:49.73 | 6:56.74 | 57748 | 89021
4 | 19:46.72 | 7:17.73 | 89022 | 121869
5 | 27:04.70 | 15:28.56 | 121870 | 191525
6 | 42:33.51 | 3:52.50 | 191526 | 208975
7 | 46:26.26 | 7:52.74 | 208976 | 244449
8 | 54:19.25 | 9:07.03 | 244450 | 285477
9 | 63:26.28 | 5:41.30 | 285478 | 311082
10 | 69:07.58 | 4:35.36 | 311083 | 331743


Характеристики диапазона извлечения и сообщения об ошибках

Выбранный диапазон

Имя файла J:\Tunnels - With Percy Jones (1993)\Tunnels (with Percy Jones) - Tunnels.wav

Пиковый уровень 97.4 %
Качество диапазона 100.0 %
CRC копии 0119A372
Копирование... OK

Ошибок не произошло

Конец отчёта


Last edited by kelia99 on Sun Oct 03, 2010 3:35 am; edited 1 time in total

_________________
Fools all of us... Basketball
avatar
kelia99

Posts : 308
Join date : 2010-09-01
Age : 56

View user profile http://in-rock-lossless.moole.ru/

Back to top Go down

Re: Tunnels(USA) - Jazz Rock/Fusion

Post by kelia99 on Thu Sep 16, 2010 4:33 pm

Tunnels - Painted Rock(1998)



Year: 1998
Origin: United States
Genre: Jazz Rock/Fusion
Quality: (FLAC,cue,Log, cover ,3% Recovery record)
Size:419 mb

Track List:

1. Painted Rock (5:24)
2. Land Of the Hazmats (5:24)
3. House Of Marc (7:40)
4. Quai Des Brumes (4:46)
5. Neurotransmiter (6:52)
6. Boyz in the Ud (5:46)
7. Black Light (6:58)
8. Bad American Dream 2001 (10:41)
9. Lilly's Dolphin (5:00)
10.Unity Gain (5:39)

Total Time: 64:14

Line-up Musicians:

- Percy Jones / bass
- Marc Wagnon / Midi vibes
- Van Manakas / guitar
- Frank Katz / drums
Log EAC:
Exact Audio Copy V0.99 prebeta 4 from 23. January 2008

Отчёт EAC об извлечении, выполненном 8. февраля 2010, 21:38

Tunnels / Painted Rock

Дисковод: HL-DT-STDVDRAM GSA-H66N Adapter: 3 ID: 0

Режим чтения : Достоверность
Использование точного потока : Да
Отключение кэша аудио : Да
Использование указателей C2 : Нет

Коррекция смещения при чтении : 667
Способность читать области Lead-in и Lead-out : Нет
Заполнение пропущенных сэмплов тишиной : Да
Удаление блоков с тишиной в начале и конце : Нет
При вычислениях CRC использовались нулевые сэмплы : Да
Интерфейс : Встроенный Win32-интерфейс для Win NT/2000

Выходной формат : Внутренние WAV-операции
Формат сэмплов : 44.100 Гц; 16 бит; стерео


TOC извлечённого CD

Трек | Старт | Длительность | Начальный сектор | Конечный сектор
---------------------------------------------------------------------
1 | 0:00.00 | 5:24.67 | 0 | 24366
2 | 5:24.67 | 5:24.48 | 24367 | 48714
3 | 10:49.40 | 7:40.06 | 48715 | 83220
4 | 18:29.46 | 4:46.00 | 83221 | 104670
5 | 23:15.46 | 6:52.20 | 104671 | 135590
6 | 30:07.66 | 5:46.70 | 135591 | 161610
7 | 35:54.61 | 6:58.16 | 161611 | 192976
8 | 42:53.02 | 10:41.13 | 192977 | 241064
9 | 53:34.15 | 5:00.00 | 241065 | 263564
10 | 58:34.15 | 5:39.73 | 263565 | 289062


Характеристики диапазона извлечения и сообщения об ошибках

Выбранный диапазон

Имя файла J:\Tunnels - Painted Rock( 1999)\Tunnels - Painted Rock.wav

Пиковый уровень 100.0 %
Качество диапазона 99.9 %
CRC копии 43097BEE
Копирование... OK

Ошибок не произошло

Конец отчёта


Last edited by kelia99 on Sun Oct 03, 2010 3:35 am; edited 1 time in total

_________________
Fools all of us... Basketball
avatar
kelia99

Posts : 308
Join date : 2010-09-01
Age : 56

View user profile http://in-rock-lossless.moole.ru/

Back to top Go down

Re: Tunnels(USA) - Jazz Rock/Fusion

Post by kelia99 on Thu Sep 16, 2010 4:34 pm

Tunnels- Progressivity(2002)



Year: 2002
Origin: United States
Genre: Jazz Rock/Fusion
Quality: (FLAC,cue,Log, cover ,3% Recovery record)
Size: 476 mb

Track List:

1. Syzygy Incident (7:32)
2. Wall to Wall sunshine (4:28)
3. Frank's Beard (9:26)
4. Diabollocks (6:00)
5. Progressivity (6:35)
6. 7.584.333.440 miles away (20:28)
7. Some things must last (5:02)
8. Fusionauts (4:45)
9. Orfeo's Demon (5:17)
10. High tea at 49th and 10th (4:03)

Total Time: 73:34

Line-up Musicians:

- Percy Jones / Fretless bass
- Marc Wagnon: Midi vibes
- Frank Katz / drums

Guests:
- John Goodsall / guitar (2,6,8)
- Mark Feldman / violin (2,3,5,7)
- Sarah Pillow / prepared voice (4,9)

Releases information
CD-Buckyball-BR009-USA-2002


_________________
Fools all of us... Basketball
avatar
kelia99

Posts : 308
Join date : 2010-09-01
Age : 56

View user profile http://in-rock-lossless.moole.ru/

Back to top Go down

Re: Tunnels(USA) - Jazz Rock/Fusion

Post by Sponsored content


Sponsored content


Back to top Go down

View previous topic View next topic Back to top

- Similar topics

 
Permissions in this forum:
You cannot reply to topics in this forum