Semente (Brazil) - Psychedelic/Space Rock

View previous topic View next topic Go down

Semente (Brazil) - Psychedelic/Space Rock

Post by kelia99 on Thu Sep 16, 2010 3:58 pm

Semente - Semente (1999)



Semente biography
New band from Brazil that plays in more of a 70's space-rock / progressive mode. The band features five members of which three of them are from one family. Instrumentation used is Bass, Guitar, Mellotron, Keyboards including piano, Tenor sax, Flutes & vocals. The female vocals of Marcia Kosinski have a husky jazz feel to them. Their music is very oriented by that period, no trace of neo Progressive here ! Excellent instrumental parts, lyrics in Portuguese.
Review by Prog-Brazil
Very good and original brazillian prog-band!!! Their first and unique album is from 1976, but recorded in 1998. I found this piece in Florianópolis/Brazil (where I live) in an old book and CD store by 4 reais (a little more than 1 dollar)!!! What a luck!!! The first song is an instrumental beautiful work. It begins with Benchimol's flute, strong sounds and wonderful harmony. "Insanidade" (insanity) is sung by Márcia, talking about dream/reality human reflexions. "Ninfa Azul" (Blue Nymph) evidently refers to old myth with Benchimol's voice. More than 11 minutes of rock, blues, space rock. in a word: a real progressive rock! One more female vocal: "Novas Forças" (New forces), and the final one: "Mundo Guerreiro" (Warrior world): female and male vocals, debating in a background flute, saxophone and mellotron. Very recommended to symphonic prog-rocks fans! I'm waiting for a second album. Four stars. Five goes only to classics like Genesis, Yes and Elp. By the way, Benchimol has a solo career.

Year: 1999
Origin: Brazil
Genre: Psychedelic/Space Rock
Quality: (FLAC,cue,Log, cover,3% Recovery record)
Size: 304 mb
Uploated to: RapidShare

Track List:

1. Semente (6:49)
2. Insanidade (6:31)
3. Ninfa Azul (11:39)
4. Novas Forças (8:14)
5. Mundo Guerreiro (8:35)




Line-up / Musicians :

- Sergio Benchimol / bass, guitar solo, violao de aco e 12 cordas, traverse flute, sax tenor, piano, mellotron, vocals
- Alexandre Kosinski / guitar solo, violao cigano
- Pedro Kosinski / baixo, piano, orgao, mellotron, moog, vocals
- Mario Carvalho / drums, vocals
- Marcia Kosinski / vocals

Log EAC:
Exact Audio Copy V0.99 prebeta 5 from 4. May 2009

EAC extraction logfile from 16. August 2010, 14:05

Semente / Semente

Used drive : HL-DT-STDVDRAM GSA-H66N Adapter: 3 ID: 0

Read mode : Secure
Utilize accurate stream : Yes
Defeat audio cache : Yes
Make use of C2 pointers : No

Read offset correction : 667
Overread into Lead-In and Lead-Out : No
Fill up missing offset samples with silence : Yes
Delete leading and trailing silent blocks : No
Null samples used in CRC calculations : Yes
Used interface : Native Win32 interface for Win NT & 2000

Used output format : Internal WAV Routines
Sample format : 44.100 Hz; 16 Bit; Stereo


TOC of the extracted CD

Track | Start | Length | Start sector | End sector
---------------------------------------------------------
1 | 0:00.00 | 6:49.17 | 0 | 30691
2 | 6:49.17 | 6:31.70 | 30692 | 60086
3 | 13:21.12 | 11:39.48 | 60087 | 112559
4 | 25:00.60 | 8:14.52 | 112560 | 149661
5 | 33:15.37 | 8:35.38 | 149662 | 188324


Range status and errors

Selected range

Filename E:\Semente - Semente (1999)\Semente - Semente.wav

Peak level 100.0 %
Range quality 100.0 %
Copy CRC F058EC40
Copy OK

No errors occurred


AccurateRip summary

Track 1 not present in database
Track 2 not present in database
Track 3 not present in database
Track 4 not present in database
Track 5 not present in database

None of the tracks are present in the AccurateRip database

End of status report





##############################################################################################



Semente - AO VIVO (2001) live



Year: 2001
Origin: Brazil
Genre: Psychedelic/Space Rock
Quality: (FLAC,cue,Log, cover,3% Recovery record)
Size: 391 mb
Uploated to: RapidShare

Track List:

1, Intro (1:18)
2, Semente (6:29)
3, Insanidade (7:51)
4, Ninfa azul (12:44)
5, Novas forças (8:47)
6, Mundo Guerreiro (9:13)
7, Bis Semente (7:12)

Total Time: 53:34




Line-up / Musicians :

- Sergio Benchimol / guitar solo
- Alex Kosinski / guitar solo
- Pedro Kosinski / bass, keyboards
- Mario Juvenal / drums
- Marcia Kosinski / vocals

Guest musicians:
- André Luz / bass
- Boni / piano, keyboards
- David Gang / saxophone, flute

Log EAC:
Exact Audio Copy V0.99 prebeta 5 from 4. May 2009

EAC extraction logfile from 16. August 2010, 17:43

Semente / AO VIVO

Used drive : HL-DT-STDVDRAM GSA-H66N Adapter: 3 ID: 0

Read mode : Secure
Utilize accurate stream : Yes
Defeat audio cache : Yes
Make use of C2 pointers : No

Read offset correction : 667
Overread into Lead-In and Lead-Out : No
Fill up missing offset samples with silence : Yes
Delete leading and trailing silent blocks : No
Null samples used in CRC calculations : Yes
Used interface : Native Win32 interface for Win NT & 2000

Used output format : Internal WAV Routines
Sample format : 44.100 Hz; 16 Bit; Stereo


TOC of the extracted CD

Track | Start | Length | Start sector | End sector
---------------------------------------------------------
1 | 0:00.00 | 1:18.42 | 0 | 5891
2 | 1:18.42 | 6:29.30 | 5892 | 35096
3 | 7:47.72 | 7:51.65 | 35097 | 70486
4 | 15:39.62 | 12:44.48 | 70487 | 127834
5 | 28:24.35 | 8:48.20 | 127835 | 167454
6 | 37:12.55 | 9:13.50 | 167455 | 208979
7 | 46:26.30 | 7:12.62 | 208980 | 241441


Range status and errors

Selected range

Filename E:\Semente - AO VIVO (2001) live\Semente - AO VIVO.wav

Peak level 100.0 %
Range quality 100.0 %
Copy CRC 3A4C11DA
Copy OK

No errors occurred


AccurateRip summary

Track 1 not present in database
Track 2 not present in database
Track 3 not present in database
Track 4 not present in database
Track 5 not present in database
Track 6 not present in database
Track 7 not present in database

None of the tracks are present in the AccurateRip database

End of status report


_________________
Fools all of us... Basketball
avatar
kelia99

Posts : 308
Join date : 2010-09-01
Age : 56

View user profile http://in-rock-lossless.moole.ru/

Back to top Go down

View previous topic View next topic Back to top

- Similar topics

 
Permissions in this forum:
You cannot reply to topics in this forum