Marco Sfogli(Germany) - There’s Hope (2008)

View previous topic View next topic Go down

Marco Sfogli(Germany) - There’s Hope (2008)

Post by kelia99 on Thu Sep 16, 2010 3:45 pm

Marco Sfogli(Germany) - There’s Hope (2008)



Несмотря на итальянскую фамилию Марко Сфогли родом из Германии. Начинал как барабанщик, но после прослушивания альбомов Dream Theater сделал выбор в пользу гитары. В 2005 году участвовал в записи сольника Джеймса лаБри, а в 2008 сотворил свой пока что единственный альбом There's Hope. Манера игры Марко напоминает стиль Петруччи, так что любителям Театра эта работа должна понравиться.



MARCO SFOGLI is an Italian guitarist born in 1980.In 1989 he picked up his first electric guitar and started to play along with his heroes,but put down the instrument in 1992 to study playing the drums,which is another huge passion of his.To quote Marco;"Being a drummer first and a guitarist second, helped me a lot in terms of creativity and rhythmic knowledge".After listening to DREAM THEATER'S "Images and Words" album in 1996 SFOGLI'S interest in guitar playing was renewed and he took to the instrument with a passion.

Now a guitar player,arranger and composer,SFOGLI has worked with many artists,most notably playing on DREAM THEATER vocalist James Labrie's third solo album "Elements of Persuasion" in 2005.SFOGLI has also played on albums by Jordan Rudess,Alex Argento and John Macaluso,among others.

In 2008 SFOGLI released his first solo album "There's Hope".SFOGLI has a style that fits in comfortably with any genre,whether it's shred,fusion or even pop.This 11 track album will appeal to fans of progressive metal,instrumental albums and virtuoso guitar work.

Родившись в семье музыкантовв 1980 году, Марко с самого рождения был “обречен” на музыкальную карьеру и уже в четыре года начал получать образование. Но, его личная музыкальная история начинается чуть позже - в 1989 году, когда на свой 9-й день рождения он получил в подарок первую электрогитару. Занятия музыкой пошли куда усерднее, и прошло совсем немного времени, как юноша легко начал подбирать и исполнять главные хиты начала 90-х, а также рокопопсовые нетленки Майкла Джексона, Ван Халена и группы Europe. В то время как простая детвора гоняла мяч, Марко продолжал оттачивать свое мастерство.

В 1992 году он ненадолго оставляет гитару и начинает учиться играть на барабанной установке. “Почувствовать себя сперва барабанщиком и лишь затем гитаристом - полезно. Мне это помогло стать креативнее и еще четче почувствовать ритм многих мелодий”. Четыр года спустя “первая любовь” все же возвращается и Марко вновь к гитаре и теперь уже практичеси навсегда. Он продолжает заниматься, а вскоре и сотрудничать с некоторыми популярными исполнителями. К нынешнему времени на его счет уж не мало очень интересных работ в сорудничестве с другими музыкантами, а также сбывшаяся мечта - работа с солистом группы Dream Theater Джеймсом ЛаБри, творчеством которого он заслушивался в 90-е годы.
В 2007, пОняв, что пора и самому создать что-то большое для слушателей, Сфогли решил записать свою первую сольную пластинку. Альбом There`s Hope и предлагается вашему вниманию.

Origin: Germany
Genre: guitar virtuoso, progressive metal, instrumental, experimental, instrumental rock
Quality: (FLAC,cue,Log,Cover,3% Recovery record)
Size: 415 Mb

Track List:

01. Still Hurts
02. Andromeda
03. Seven
04. There’s Hope
05. Spread The Disease
06. Farewell
07. Sunset Lights
08. Genius
09. Never Forgive Me
10. Memories
11. Texas BBQ



Total Time: 49:01



Line-up Musicians:

- Marco Sfogli / all guitars, bass on tracks (5-6-7-11), keyboards on tracks (1-2-3-7)

Guest Musicians

- Salvyo Maiello / drums on tracks (1-2-7-8-9)
- Ennio Giannone / drums on tracks (5-6)
- John Macaluso / drums on tracks (3-4)
- Raffaele Natale / drums on track (11)
- Andrea Casali / bass on tracks (1-2-4-8-9)
- Dino Fiorenza / bass on track (3)
- Emanuele Casali / keyboard solo on track (2)
- Alex Argento / keyboards on track 8 and keyboard solos on tracks (3-5-8)
- Matt Guillory / keyboard solos on tracks (1-7), piano on track (10)
- Fabio Tommasone / piano on track (3)

Releases information
CD Lion Music #6419922002285 (2008)
Log EAC:
Exact Audio Copy V0.99 prebeta 5 from 4. May 2009

Отчёт EAC об извлечении, выполненном 23. июня 2010, 8:54

Marco Sfogli / There's Hope

Дисковод: HL-DT-STDVDRAM GSA-H66N Adapter: 3 ID: 0

Режим чтения : Достоверность
Использование точного потока : Да
Отключение кэша аудио : Да
Использование указателей C2 : Нет

Коррекция смещения при чтении : 667
Способность читать области Lead-in и Lead-out : Нет
Заполнение пропущенных сэмплов тишиной : Да
Удаление блоков с тишиной в начале и конце : Нет
При вычислениях CRC использовались нулевые сэмплы : Да
Интерфейс : Встроенный Win32-интерфейс для Win NT/2000

Выходной формат : Внутренние WAV-операции
Формат сэмплов : 44.100 Гц; 16 бит; стерео


TOC извлечённого CD

Трек | Старт | Длительность | Начальный сектор | Конечный сектор
---------------------------------------------------------------------
1 | 0:00.00 | 5:02.61 | 0 | 22710
2 | 5:02.61 | 6:30.70 | 22711 | 52030
3 | 11:33.56 | 5:01.09 | 52031 | 74614
4 | 16:34.65 | 4:00.71 | 74615 | 92685
5 | 20:35.61 | 4:07.53 | 92686 | 111263
6 | 24:43.39 | 3:49.57 | 111264 | 128495
7 | 28:33.21 | 5:38.22 | 128496 | 153867
8 | 34:11.43 | 4:48.15 | 153868 | 175482
9 | 38:59.58 | 4:10.74 | 175483 | 194306
10 | 43:10.57 | 3:37.44 | 194307 | 210625
11 | 46:48.26 | 2:13.26 | 210626 | 220626


Характеристики диапазона извлечения и сообщения об ошибках

Выбранный диапазон

Имя файла J:\Marco Sfogli - There’s Hope (2008)\Marco Sfogli - There's Hope.wav

Пиковый уровень 99.2 %
Качество диапазона 100.0 %
CRC копии 5260647B
Копирование... OK

Ошибок не произошло


AccurateRip: сводка

Трек 1 точность не определена (достоверность 2) [2CB60BB0], AccurateRip вернул [1B24415D]
Трек 2 точность не определена (достоверность 2) [320B00E9], AccurateRip вернул [19F083FF]
Трек 3 точность не определена (достоверность 2) [1219AB46], AccurateRip вернул [4B00642F]
Трек 4 точность не определена (достоверность 2) [249EEA52], AccurateRip вернул [EC629748]
Трек 5 точность не определена (достоверность 2) [0F8B72E5], AccurateRip вернул [AFBB4B0C]
Трек 6 точность не определена (достоверность 2) [5233430B], AccurateRip вернул [AEAE5CAA]
Трек 7 точность не определена (достоверность 2) [1D13561D], AccurateRip вернул [BA177338]
Трек 8 точность не определена (достоверность 2) [AF99A3FC], AccurateRip вернул [A406A293]
Трек 9 точность не определена (достоверность 2) [20B4D678], AccurateRip вернул [774ED031]
Трек 10 точность не определена (достоверность 2) [DE13032A], AccurateRip вернул [12205A0C]
Трек 11 точность не определена (достоверность 2) [EFF7E021], AccurateRip вернул [87F74CF2]

Ни один трек не прошёл проверки на точность
В вашей базе может быть иной вариант штамповки диска

Конец отчёта


_________________
Fools all of us... Basketball
avatar
kelia99

Posts : 308
Join date : 2010-09-01
Age : 56

View user profile http://in-rock-lossless.moole.ru/

Back to top Go down

View previous topic View next topic Back to top

- Similar topics

 
Permissions in this forum:
You cannot reply to topics in this forum