L. Subramaniam & Stephane Grappelli - Conversations (1984)

View previous topic View next topic Go down

L. Subramaniam & Stephane Grappelli - Conversations (1984)

Post by kelia99 on Thu Sep 16, 2010 3:40 pm

L. Subramaniam & Stephane Grappelli - Conversations (1984)



Стиль: Jazz/Fusion
Формат: Flac+CUE+Scans
Размер: 229 Mb
Время: 00:40:43
Mcd-9130-2

Track List:

01. Don't Leave Me 6:50
02. Memories 5:37
03. Paganini Caprice 5 2:03
04. Conversation 5:15
05. Walking in a Dream 5:50
0. Illusion 7:43
07. Tribute to Mani 2:27
08. French Resolution 4:41
All compositions - by L. Subramaniam (except 7th track - S. Grappelli)

Line-up/Musicians:

-L. Subramaniam / Violin, Viola, Violectra, Tambura, Surmanda and Percussion - 1-6,8
-Stephane Grapelli / Violin and Piano
-Joe Sample /Keyboards - 1,5,8
-Mark Massey / Synthesizer and Piano - 1,2,4,6,8
-Jorge Strunz / Guitar - 1,3-6,8
-Jerry Watts / Double Bass - 1-6,8
-Ron Wagner / Drums - 1,3-6,8
-Frank Morgan / Alto Saxophone - 2
-Handel Manuel / Piano - 3
-Niles Steiner / Steinerphone- 5,8
-Manoochehr Sadeghi / Santoor - 6
-Anthony Hindson / Electric Guitar - 6
-Frank Bennett / Percussion - 6
Log EAC:
Exact Audio Copy V0.99 prebeta 4 from 23. January 2008

Отчёт EAC об извлечении, выполненном 31. июля 2009, 22:30

Subramaniam, L. & Stephane Grappelli / Conversations

Дисковод: HL-DT-STDVDRAM GSA-H66N Adapter: 3 ID: 0

Режим чтения : Достоверность
Использование точного потока : Да
Отключение кэша аудио : Да
Использование указателей C2 : Нет

Коррекция смещения при чтении : 667
Способность читать области Lead-in и Lead-out : Нет
Заполнение пропущенных сэмплов тишиной : Да
Удаление блоков с тишиной в начале и конце : Нет
При вычислениях CRC использовались нулевые сэмплы : Да
Интерфейс : Встроенный Win32-интерфейс для Win NT/2000

Выходной формат : Внутренние WAV-операции
Формат сэмплов : 44.100 Гц; 16 бит; стерео


TOC извлечённого CD

Трек | Старт | Длительность | Начальный сектор | Конечный сектор
---------------------------------------------------------------------
1 | 0:00.00 | 6:52.42 | 0 | 30941
2 | 6:52.42 | 5:39.60 | 30942 | 56426
3 | 12:32.27 | 2:05.05 | 56427 | 65806
4 | 14:37.32 | 5:17.25 | 65807 | 89606
5 | 19:54.57 | 5:52.30 | 89607 | 116036
6 | 25:47.12 | 7:45.28 | 116037 | 150939
7 | 33:32.40 | 2:29.32 | 150940 | 162146
8 | 36:01.72 | 4:41.65 | 162147 | 183286


Характеристики диапазона извлечения и сообщения об ошибках

Выбранный диапазон

Имя файла J:\Rapida\Lossless\L. Subramaniam & Stephane Grappelli - Conversations (1984)\Subramaniam, L. & Stephane Grappelli - Conversations.wav

Пиковый уровень 90.8 %
Качество диапазона 100.0 %
CRC копии D199DF13
Копирование... OK

Ошибок не произошло


AccurateRip: сводка

Трек 1 нет в базе данных
Трек 2 нет в базе данных
Трек 3 нет в базе данных
Трек 4 нет в базе данных
Трек 5 нет в базе данных
Трек 6 нет в базе данных
Трек 7 нет в базе данных
Трек 8 нет в базе данных

Ни одного трека нет в базе AccurateRip

Конец отчёта

_________________
Fools all of us... Basketball
avatar
kelia99

Posts : 308
Join date : 2010-09-01
Age : 56

View user profile http://in-rock-lossless.moole.ru/

Back to top Go down

View previous topic View next topic Back to top

- Similar topics

 
Permissions in this forum:
You cannot reply to topics in this forum