Pekka Pohjola - Heavy Jazz - Live in Helsinki and Tokyo (1995)2СD

View previous topic View next topic Go down

Pekka Pohjola - Heavy Jazz - Live in Helsinki and Tokyo (1995)2СD

Post by kelia99 on Thu Sep 16, 2010 12:16 am

Pekka Pohjola - Heavy Jazz - Live in Helsinki and Tokyo (1995)2СD



Year: 1995(2CD)
Origin: Finland
Genre: Jazz Rock/Fusion/Progressive
Quality: (FLAC,cue,Log,Cover,3% Recovery record)
Size: 661 Mb

Pekka Pohjola biography Pekka POHJOLA (born 1952) is without doubt one of the greatest bassist/multi-instrumentalist in Europe. He knows how to handle several other instruments too... violin, piano, organ, keyboards, synthesizers, and trumpet as well. His style could be described with words as progressive rock filled with invention & Scandinavian folky/jazzy delights. In 1970 Pekka joined WIGWAM, a Finnish group around the English singer and pianist Jim PEMBROKE, staying four glorious years. In 1977, he formed The GROUP and in 1979, he toured with Mike OLDFIELD, who is an admirer of this bass-player. In 1980, The GROUP changed its name to PEKKA POHJOLA GROUP, but along the way the word "GROUP" is dropped, so the band played on as Pekka POHJOLA.

In addition to working with The GROUP, Pekka has released a number of solo albums over the years. Meanwhile, his music has reached new generations of music lovers. During his WIGWAM days, he recorded his first solo-album, the delicious "Pihkasilmä Kaarnakorva". This album has symphonic/classical references and is very ZAPPA-influenced with lots of woodwinds and some fine bass soloing. "Visitation" is a real masterpiece of melodic jazz-rock elements on which Pekka shows his talents as a bass-player and composer. This is probably the best place to start getting familiar. "Urban Tango" (1982) and "Space Waltz" are probably more accessible combining classical tendencies, fusion, folk and more. "New Impressionnist" is an excellent compilation CD that contains tracks from "Everyman", "Urban Tango", "Visitation" and "Katkavaaran"... and is probably as good start.

Late September 1997, "Pewit" POHJOLA's new studio album is finally released after five years since "Changing Waters". The musicians are the same as on "Changing Waters". In May 2001, Pekka released "Views", his first solo album in quite some time.

CONCLUSION: "You do not have to be a fan of progressive rock, fusion or jazz rock to appreciate his majestic melody lines."

Track List:

Disc 1: 48:17

1. Relief (2:47)
2. Pressure (9:29)
3. Imppu's Tango (14:11)
4. Nykivä keskustelu tuntemattoman kanssa (Comfort With A Stranger) (7:08)
5. Innocent Questions (4:08)
6. Fanatic Answers (10:33)

Disc 2: 51:16

1. Benjamin (10:56)
2. No Way Out (7:45)
3. Albatross (9:00)
4. Risto (12:10)
5. Heavy Jazz (11:19)

Total Time: 99:26



Line-up Musicians:

- Pekka Pohjola / bass

+ Markku Kanerva / guitar
- Seppo Kantonen / keyboards
- Anssi Nykänen / drums

Releases information
CD. Pohjola PELPCD 7

Log File 1CD
Spoiler:
Exact Audio Copy V0.99 prebeta 5 from 4. May 2009

Отчёт EAC об извлечении, выполненном 18. февраля 2010, 17:57

Pekka Pohjola / Heavy Jazz (disc 1)

Дисковод: HL-DT-STDVDRAM GSA-H66N Adapter: 3 ID: 0

Режим чтения : Достоверность
Использование точного потока : Да
Отключение кэша аудио : Да
Использование указателей C2 : Нет

Коррекция смещения при чтении : 667
Способность читать области Lead-in и Lead-out : Нет
Заполнение пропущенных сэмплов тишиной : Да
Удаление блоков с тишиной в начале и конце : Нет
При вычислениях CRC использовались нулевые сэмплы : Да
Интерфейс : Встроенный Win32-интерфейс для Win NT/2000

Выходной формат : Внутренние WAV-операции
Формат сэмплов : 44.100 Гц; 16 бит; стерео


TOC извлечённого CD

Трек | Старт | Длительность | Начальный сектор | Конечный сектор
---------------------------------------------------------------------
1 | 0:00.00 | 2:47.25 | 0 | 12549
2 | 2:47.25 | 9:29.35 | 12550 | 55259
3 | 12:16.60 | 14:11.05 | 55260 | 119089
4 | 26:27.65 | 7:08.00 | 119090 | 151189
5 | 33:35.65 | 4:08.20 | 151190 | 169809
6 | 37:44.10 | 10:32.60 | 169810 | 217269


Характеристики диапазона извлечения и сообщения об ошибках

Выбранный диапазон

Имя файла J:\Новая папка\Pekka Pohjola - Heavy Jazz\Disc 1\Pekka Pohjola - Heavy Jazz (disc 1).wav

Пиковый уровень 98.8 %
Качество диапазона 99.9 %
CRC копии 4C038D3B
Копирование... OK

Ошибок не произошло


AccurateRip: сводка

Трек 1 точное извлечение (доверие 3) [099FAA36]
Трек 2 точное извлечение (доверие 3) [3CEB1955]
Трек 3 точное извлечение (доверие 2) [536E765B]
Трек 4 точное извлечение (доверие 2) [7EFEA741]
Трек 5 точное извлечение (доверие 2) [49E68589]
Трек 6 точное извлечение (доверие 2) [76EAE0C4]

Все треки извлечены точно

Конец отчёта
Log File 2CD
Spoiler:
Exact Audio Copy V0.99 prebeta 5 from 4. May 2009

Отчёт EAC об извлечении, выполненном 18. февраля 2010, 18:15

Pekka Pohjola / Heavy Jazz

Дисковод: HL-DT-STDVDRAM GSA-H66N Adapter: 3 ID: 0

Режим чтения : Достоверность
Использование точного потока : Да
Отключение кэша аудио : Да
Использование указателей C2 : Нет

Коррекция смещения при чтении : 667
Способность читать области Lead-in и Lead-out : Нет
Заполнение пропущенных сэмплов тишиной : Да
Удаление блоков с тишиной в начале и конце : Нет
При вычислениях CRC использовались нулевые сэмплы : Да
Интерфейс : Встроенный Win32-интерфейс для Win NT/2000

Выходной формат : Внутренние WAV-операции
Формат сэмплов : 44.100 Гц; 16 бит; стерео


TOC извлечённого CD

Трек | Старт | Длительность | Начальный сектор | Конечный сектор
---------------------------------------------------------------------
1 | 0:00.00 | 10:56.40 | 0 | 49239
2 | 10:56.40 | 7:45.25 | 49240 | 84139
3 | 18:41.65 | 9:00.00 | 84140 | 124639
4 | 27:41.65 | 12:10.40 | 124640 | 179429
5 | 39:52.30 | 11:18.70 | 179430 | 230349


Характеристики диапазона извлечения и сообщения об ошибках

Выбранный диапазон

Имя файла J:\Новая папка\Pekka Pohjola - Heavy Jazz\Disc 2\Pekka Pohjola - Heavy Jazz.wav

Пиковый уровень 98.8 %
Качество диапазона 99.9 %
CRC копии 6E324077
Копирование... OK

Ошибок не произошло


AccurateRip: сводка

Трек 1 нет в базе данных
Трек 2 нет в базе данных
рек 3 нет в базе данных
Трек 4 нет в базе данных
Трек 5 нет в базе данных

Ни одного трека нет в базе AccurateRip

Конец отчёта


Last edited by kelia99 on Sun Oct 03, 2010 3:34 am; edited 1 time in total

_________________
Fools all of us... Basketball
avatar
kelia99

Posts : 308
Join date : 2010-09-01
Age : 55

View user profile http://in-rock-lossless.moole.ru/

Back to top Go down

Re: Pekka Pohjola - Heavy Jazz - Live in Helsinki and Tokyo (1995)2СD

Post by kelia99 on Thu Sep 16, 2010 12:16 am

trilicon wrote:Спасибо!

_________________
Fools all of us... Basketball
avatar
kelia99

Posts : 308
Join date : 2010-09-01
Age : 55

View user profile http://in-rock-lossless.moole.ru/

Back to top Go down

Re: Pekka Pohjola - Heavy Jazz - Live in Helsinki and Tokyo (1995)2СD

Post by kelia99 on Thu Sep 16, 2010 12:16 am

Fusion_Brasil wrote:Thanks a lot, kelia.

Nice shot

_________________
Fools all of us... Basketball
avatar
kelia99

Posts : 308
Join date : 2010-09-01
Age : 55

View user profile http://in-rock-lossless.moole.ru/

Back to top Go down

Re: Pekka Pohjola - Heavy Jazz - Live in Helsinki and Tokyo (1995)2СD

Post by Sponsored content


Sponsored content


Back to top Go down

View previous topic View next topic Back to top

- Similar topics

 
Permissions in this forum:
You cannot reply to topics in this forum