Judas Priest - Nostradamus (2008)2CD

View previous topic View next topic Go down

Judas Priest - Nostradamus (2008)2CD

Post by kelia99 on Wed Sep 15, 2010 6:58 pm

Judas Priest - Nostradamus (2008)2CD





Помните, как Первый секретарь ЦК КПСС Хрущёв в далёком 1960-м году пообещал показать всему Западному миру "кузькину мать"? К счастью (или к сожалению) мир так и не узнал, как она выглядит. А вот бирмингемские металлурги из Judas Priest своё обещание выпустить концептуальный альбом о пророке Мишеле Нострадамусе, не в пример Никите Сергеичу, выполнили в намеченные сроки. И как выполнили. В июне на мировые муз-прилавки был выложен аж двойной альбом патриархов (да и прародителей, что уж там) ХЕВИ.

Если честно, после первых двух-трёх прослушиваний я готов был поставить за данную работу "четыре с плюсом", но чем больше я её слушал, тем больше осознавал, что меньше чем на крепкую "пятёрку" (пусть и без плюса) подобное творчество оценивать было бы кощунством. "Еврейские священники" не просто выдали "зрелую" и продуманную работу, они показали всей рок-аудитории ту самую "КУЗЬКИНУ МАТЬ".

Итак, диск содержит в себе целых 23 номера, 9 из которых – короткие интро (переходящие в основные номера). Почти половина из номеров легко подошла бы под критерии "медляка", что, согласитесь, для подобного стиля как-то непривычно. Две трети вещей написаны в мрачном минорном ключе, что не удивительно, ибо Нострадамус, как известно, ничего хорошего нашему неспокойному миру не обещал.

Что примечательного (лично для меня) – харизматичный вокалер (металист-провокатор; "лысый череп" всего хеви-движения; "ум, честь, совесть и, пожалуй, правда" тяжёлой части человечества) британского коллектива, нежданно-негаданно, красиво и художественно запел. Когда-то Хэлфорд, как истовый гуру зарождающегося стиля, показал грядущим хеви-покалениям как следует исполнять вокальные партии данного направления. И все прошедшие годы наш "пионер" неуклонно следовал своим правилам. А правила эти вкратце гласили: побольше необузданной энергетики, помощнее и похрипатее, по возможности почаще "нечеловечески-высоких" воплей, ну и побыстрее конечно. И вдруг (ни с того, ни с сего, понимаете ли), в манере исполнения нашего "духовного лидера" мы отчётливо слышим, не совсем то, что мы зазубрили как "Отче наш", а просто-таки элементы оперного пения. За вокальной партией мы угадываем "лирического героя" (наверное, так у них в "классическом вокале" это называется). Оказалось, что Роберт может, не только пронзительно вопить, но и исполнять такой сложный вокальный приём как негромкое пение в нижней тесситуре на крепком дыхании, да ещё с вибрацией и грудной резонацией . Хэлфорд исполняет песни так, как будто участвует в сценической постановке рок-оперы. И это, чёрт возьми, подкупает! Понимаешь, что исполнитель – это, не единственно затянутый в проклёпанную кожу воитель, который на каждом углу грозит "We ROCK the World", а самобытная личность с индивидуальными переживаниями. Итак, кому как, а мне теперь абсолютно ясно, что товарищ Роберт Джон Артур Хэлфорд, не только небезызвестный "Бог Метала" пятидесяти с гаком лет, но настоящий большой АРТИСТ.

Нельзя не напомнить, что и остальные участники группы постарались не меньше фронтмена. Сдвоенные пронзительные гитары (и даже переборы сдвоенные), отточенная ритм-секция (ударник – вообще красава), местами атмосферные клавишные (порой перерастающие в присутствие симфонического оркестра) – всё это дополнительные "плюсики" в "общий котёл" положительного восприятия. Коротич, всем, кто вдруг разочарован, или "не въехал" сразу, если не на "фирме", то на "винте" иметь ОБЯЗАТЕЛЬНО, ибо данный фундаментальный труд со временем займёт своё заслуженное высокое место в аудиотеке всякого бывалого меломана. Приятного вам прослушивания!

Metal Library

Origin: UK
Genre: Heavy Metal
Quality: (FLAC,cue,Log, cover,3% Recovery record)
Size: 693 mb
Uploated to: RapidShare
My CD collection

Track List CD1:

01.Dawn of Creation 02:31
02.Prophecy 05:26
03.Awakening 00:52
04.Revelations 07:05
05.The Four Horsemen 01:35
06.War 05:04
07.Sands of Time 02:36
08.Pestilence and Plague 05:08
09.Death 07:33
10.Peace 02:21
11.Conquest 04:42
12.Lost Love 04:28
13.Persecution 06:34



Track List CD1:

14.Solitude 01:22
15.Exiled 06:32
16.Alone 07:50
17.Shadows in the Flame 01:10
18.Visions 05:27
19.Hope 02:09
20.New Beginnings 04:56
21.Calm Before the Storm 02:05
22.Nostradamus 06:46
23.Future of Mankind 08:29

Total playing time: 01:42:41




Line-up / Musicians :

-Rob Halford / vocals
-K.K. Downing / guitars
-Glenn Tipton / guitars
-Ian Hill / bass
-Scott Travis / drums
Log EAC CD1:
Exact Audio Copy V0.99 prebeta 5 from 4. May 2009

EAC extraction logfile from 14. September 2010, 11:41

Judas Priest / Nostradamus (Disk 1)

Used drive : HL-DT-STDVDRAM GSA-H66N Adapter: 3 ID: 0

Read mode : Secure
Utilize accurate stream : Yes
Defeat audio cache : Yes
Make use of C2 pointers : No

Read offset correction : 667
Overread into Lead-In and Lead-Out : No
Fill up missing offset samples with silence : Yes
Delete leading and trailing silent blocks : No
Null samples used in CRC calculations : Yes
Used interface : Native Win32 interface for Win NT & 2000

Used output format : Internal WAV Routines
Sample format : 44.100 Hz; 16 Bit; Stereo


TOC of the extracted CD

Track | Start | Length | Start sector | End sector
---------------------------------------------------------
1 | 0:00.00 | 2:31.52 | 0 | 11376
2 | 2:31.52 | 5:26.36 | 11377 | 35862
3 | 7:58.13 | 0:52.71 | 35863 | 39833
4 | 8:51.09 | 7:05.17 | 39834 | 71725
5 | 15:56.26 | 1:35.10 | 71726 | 78860
6 | 17:31.36 | 5:04.36 | 78861 | 101696
7 | 22:35.72 | 2:36.68 | 101697 | 113464
8 | 25:12.65 | 5:08.67 | 113465 | 136631
9 | 30:21.57 | 7:33.68 | 136632 | 170674
10 | 37:55.50 | 2:21.49 | 170675 | 181298
11 | 40:17.24 | 4:42.20 | 181299 | 202468
12 | 44:59.44 | 4:28.25 | 202469 | 222593
13 | 49:27.69 | 6:34.25 | 222594 | 252168


Range status and errors

Selected range

Filename E:\Judas Priest - Nostradamus (2008)2CD\cd1\Judas Priest - Nostradamus (Disk 1).wav

Peak level 98.7 %
Range quality 100.0 %
Copy CRC 93AEAB1B
Copy OK

No errors occurred


AccurateRip summary

Track 1 accurately ripped (confidence 115) [DA364870]
Track 2 accurately ripped (confidence 120) [834A83A2]
Track 3 accurately ripped (confidence 119) [748BF580]
Track 4 accurately ripped (confidence 119) [E6FB38B6]
Track 5 accurately ripped (confidence 119) [A1111C36]
Track 6 accurately ripped (confidence 119) [26A77FA0]
Track 7 accurately ripped (confidence 119) [66B4081A]
Track 8 accurately ripped (confidence 119) [10897758]
Track 9 accurately ripped (confidence 120) [5A58B86C]
Track 10 accurately ripped (confidence 119) [448C1404]
Track 11 accurately ripped (confidence 119) [760689B1]
Track 12 accurately ripped (confidence 117) [6C411639]
Track 13 accurately ripped (confidence 116) [2E6FC02F]

All tracks accurately ripped

End of status report
Log EAC CD2:
Exact Audio Copy V0.99 prebeta 5 from 4. May 2009

EAC extraction logfile from 14. September 2010, 11:54

Judas Priest / Nostradamus [CD2]

Used drive : HL-DT-STDVDRAM GSA-H66N Adapter: 3 ID: 0

Read mode : Secure
Utilize accurate stream : Yes
Defeat audio cache : Yes
Make use of C2 pointers : No

Read offset correction : 667
Overread into Lead-In and Lead-Out : No
Fill up missing offset samples with silence : Yes
Delete leading and trailing silent blocks : No
Null samples used in CRC calculations : Yes
Used interface : Native Win32 interface for Win NT & 2000

Used output format : Internal WAV Routines
Sample format : 44.100 Hz; 16 Bit; Stereo


TOC of the extracted CD

Track | Start | Length | Start sector | End sector
---------------------------------------------------------
1 | 0:00.00 | 1:22.71 | 0 | 6220
2 | 1:22.71 | 6:32.57 | 6221 | 35677
3 | 7:55.53 | 7:50.22 | 35678 | 70949
4 | 15:46.00 | 1:10.13 | 70950 | 76212
5 | 16:56.13 | 5:24.12 | 76213 | 100524
6 | 22:20.25 | 2:09.33 | 100525 | 110232
7 | 24:29.58 | 4:56.62 | 110233 | 132494
8 | 29:26.45 | 2:05.07 | 132495 | 141876
9 | 31:31.52 | 6:43.10 | 141877 | 172111
10 | 38:14.62 | 8:29.51 | 172112 | 210337


Range status and errors

Selected range

Filename E:\Judas Priest - Nostradamus (2008)2CD\cd2\Judas Priest - Nostradamus [CD2].wav

Peak level 98.7 %
Range quality 99.9 %
Copy CRC BCAC3140
Copy OK

No errors occurred


AccurateRip summary

Track 1 accurately ripped (confidence 112) [20C335FB]
Track 2 accurately ripped (confidence 117) [3BB7CADE]
Track 3 accurately ripped (confidence 116) [676D8DBD]
Track 4 accurately ripped (confidence 117) [AA521C5B]
Track 5 accurately ripped (confidence 116) [2A0847DD]
Track 6 accurately ripped (confidence 116) [5EC92398]
Track 7 accurately ripped (confidence 113) [66BB6B0D]
Track 8 accurately ripped (confidence 117) [AFD55E80]
Track 9 accurately ripped (confidence 117) [EC1E6502]
Track 10 accurately ripped (confidence 115) [0168C44D]

All tracks accurately ripped

End of status report



_________________
Fools all of us... Basketball
avatar
kelia99

Posts : 308
Join date : 2010-09-01
Age : 56

View user profile http://in-rock-lossless.moole.ru/

Back to top Go down

View previous topic View next topic Back to top

- Similar topics

 
Permissions in this forum:
You cannot reply to topics in this forum